<?xml version="1.0" encoding="UTF-8"?>
<svg width="220mm" height="190mm" clip-rule="evenodd" fill-rule="evenodd" image-rendering="optimizeQuality" shape-rendering="geometricPrecision" text-rendering="geometricPrecision" version="1.1" viewBox="0 0 22000 19000" xml:space="preserve" xmlns="http://www.w3.org/2000/svg"><defs><font id="a" font-weight="400" horiz-adv-x="720" horiz-origin-x="0" horiz-origin-y="0" vert-adv-y="90" vert-origin-x="45" vert-origin-y="90"><font-face font-family="Bookman-Demi"/><missing-glyph><path d="m0 0"/></missing-glyph><glyph horiz-adv-x="660" unicode="3"><path d="m237.83 323v88.999h33.167c42.835 0 74.335 6.6661 94.166 20.002 13.336 8.6639 23.666 20.832 31.333 36.165 7.6668 15.334 11.502 31.166 11.502 47.332 0 30.168-9.668 52.667-29 67.334-19.332 14.835-44.334 22.167-74.834 22.167-28 0-53.001-8.8347-75.168-26.668-10.665-8.8313-16.167-16.665-16.167-23.834 0-1.9978 3.0018-8.8313 8.6674-20.5 5.669-11.666 8.5-23.499 8.5-35.499 0-22-8.6674-39.666-25.831-52.834-17.335-13.332-37.668-19.998-61.167-19.998-25.002 0-45.335 8.3327-60.835 25.165-15.497 16.669-23.164 38.166-23.164 64.168 0 28.331 7.998 54.166 24.165 77.501 16.167 23.499 37.333 43.166 63.666 59.165 25.5 15.832 54.5 27.665 87.169 35.168 32.665 7.4994 65.333 11.164 97.83 11.164 32.002 0 63.168-3.497 93.5-10.665 30.5-7.1682 58.834-18.332 85.335-33.334 26.333-14.832 47.5-34.499 63.332-58.834 16.003-24.165 24.001-52.998 24.001-86.499 0-29.998-11.334-58.165-33.833-84.498-22.666-26.333-49.166-43.835-79.335-52.168v-1.9978c19.169-3.3365 37.835-9.5006 56-18.503 18.001-9.166 33.836-20.664 47.336-34.499 13.667-13.834 24.165-29.499 31.664-46.834 7.5028-17.335 11.167-36.834 11.167-58.332 0-35.834-9.5006-69.168-28.331-100-18.834-30.831-43.835-55.498-74.666-73.666-20.336-12-42.835-22.167-68-30.5-25.002-8.3327-50.669-14.5-76.668-18.499-26.002-4.1663-51.167-6.1676-75.168-6.1676-30.332 0-59.999 2.9984-88.999 8.8347-29 5.8329-55.334 14.664-79.167 26.333-18.834 8.9986-35.998 20.333-51.666 33.833-15.668 13.5-28.167 29-37.333 46.332-9.3333 17.502-14.002 36.169-14.002 56.334 0 25.002 8.0014 46.499 24.001 64.332 15.836 18.001 36.332 26.835 60.999 26.835 14.336 0 28.167-3.0018 41.503-9.1694 13.332-6.1641 24.165-14.999 32.334-26.665 8.1653-11.502 12.164-25.002 12.164-40.168 0-7.4994-1.9978-16.167-5.8329-25.999-2.6671-6.5022-3.999-11.833-3.999-15.999 0-8.8347 5.6655-17.502 16.665-26.002 21.166-16.498 49.832-24.834 85.833-24.834 40 0 71.999 10.501 95.669 31.668 23.83 21.166 35.667 51.666 35.667 91.335 0 12.666-1.67 25.333-4.8357 38.166-3.3331 12.666-8.5 24.667-15.665 35.998-7.1682 11.502-15.334 20.169-24.336 26.501-13.332 9.002-29.998 15.334-49.832 19.001-19.834 3.5004-41.001 5.3309-63.332 5.3309h-22.003l-14.166-1.9978z"/></glyph><glyph horiz-adv-x="779" unicode="Đ"><path d="m430 412v-93.999h-148v-171.83c0-24.001 3.6677-38.668 10.832-43.832 10.334-6.8335 29.335-10.334 57-10.334 34.833 0 65.5 6.3315 91.834 19.165 26.333 12.834 47.834 30.834 64.5 53.667 16.669 22.833 28.833 49.501 36.834 79.666 7.998 30.168 12 62.833 12 98.001 0 76.333-15.836 135.17-47.336 176.83-34.499 45.833-84.833 68.666-151 68.666-22 0-38.166-1.1679-47.998-3.6677-10.003-2.3325-16.833-7.998-20.835-16.498-3.8317-8.6674-5.8329-23.168-5.8329-43.501v-112.33h148zm-410-412v82.166c28.003 2.0012 47.667 6.0002 59.169 12.335 11.331 6.1676 18.499 14.999 21.501 26.501 2.8311 11.666 4.3303 31.333 4.3303 59.333v137.67h-85v93.999h85v88.501c0 27.334-1.3319 46.666-4.1663 58.165-2.6671 11.502-9.9992 20.5-21.665 26.835-11.833 6.3315-31.5 10.501-59.169 12.834v82.664h309c94.665 0 159.67-4.9996 194.83-15.166 29.834-8.1653 59.5-23.164 88.835-44.665 29.332-21.668 53.5-46.168 72.334-73.502 20.832-28.997 36.5-61.167 47.165-96.666 10.501-35.499 15.836-72.498 15.836-111.33 0-111.5-36.336-199.5-108.83-263.5-19.834-17.331-41.168-31.333-63.834-41.998-22.502-10.669-45.167-18.335-68-23-22.833-4.501-47.001-7.4994-72.501-9.002-25.667-1.4992-52.834-2.1651-81.831-2.1651h-333z"/></glyph><glyph horiz-adv-x="660" unicode="0"><path d="m341.83 698c49.832 0 93.333-9.6645 130.83-28.997 37.333-19.336 68.331-45.669 92.831-78.669 24.667-33 43.002-70.998 55.166-114.16 12.168-43.169 18.335-88.169 18.335-135.33 0-48.5-6.1676-94.333-18.499-137.17-12.335-42.999-31.333-81.165-56.669-114.5-25.333-33.334-57.164-59.333-95.331-78.167-38.334-18.667-82.5-28-132.5-28-99.002 0-174.67 33-227.17 98.834-52.499 65.832-78.833 149.67-78.833 251.16 0 49.334 6.4988 96.335 19.332 141 12.834 44.501 31.999 83.668 57.834 117.17 25.667 33.502 58.332 59.667 97.834 78.501 39.498 18.834 85.164 28.331 136.83 28.331zm-7.8341-621c33.833 0 59.5 15.668 76.999 46.834 17.666 31.333 29 66.668 34.167 106 5.1669 39.502 7.8341 78.167 7.8341 116.34 0 26.999-1.4992 53.998-4.3337 80.83-3.0018 26.835-8.3327 53.835-16.167 80.834-7.8341 27.003-19.834 49.836-36.001 68.335-16.331 18.499-37.166 27.832-62.498 27.832-33.167 0-58.5-15.166-75.834-45.666-17.331-30.5-28.833-65.166-34.167-104-5.3309-39-7.998-77.166-7.998-114.5 0-63.499 7.8341-123.17 23.666-179 15.665-55.836 47.165-83.836 94.333-83.836z"/></glyph><glyph horiz-adv-x="660" unicode="8"><path d="m143 640c48.5 38.665 112.83 57.998 193 57.998 29.666 0 59.333-3.1657 89.166-9.3333 29.83-6.1641 57.499-16.331 82.999-30.5 25.667-14.166 46.168-32.665 61.665-55.334 15.501-22.833 23.168-50.163 23.168-81.998 0-30.001-8.6674-56.833-25.835-80.332-17.331-23.67-39.997-43.002-68-57.834 43.333-16.334 76.5-37.835 99.5-64.667 22.833-26.835 34.335-62.335 34.335-106.17 0-35.503-8.6674-68.335-26.333-98.5-17.499-30.336-42.002-55.668-73.334-76.169-26.999-17.833-59.667-31.333-97.834-40.499-38.33-9.166-75.332-13.667-111.17-13.667-22.167 0-43.999 1.3319-65.664 3.999-21.668 2.4998-42.835 6.8335-63.834 13.001-20.835 6.0002-39 13.5-54.668 22.334-31.668 17.331-56.833 39.498-75.834 66.498-18.834 27.167-28.331 57.335-28.331 90.502 0 25.999 5.1669 49.501 15.334 70.165 10.33 20.835 24.667 38.668 42.831 53.5 18.335 14.668 39.666 26.668 64.168 35.834-30.001 14.002-53.336 33.502-69.667 58.5-16.501 25.002-24.834 53.835-24.834 86.503 0 60.832 26.501 112.83 79.167 156.17zm196-198.5 51.167-22c22.167 13.667 39.666 27.832 52.499 42.333 12.834 14.668 19.332 32.17 19.332 52.667 0 20.5-6.1676 37.5-18.332 51.335-12.168 13.834-27.334 23.834-45.666 30.001-18.168 6.1641-37.835 9.166-59.002 9.166-45 0-77.166-10.501-96.666-31.668-11.334-13.667-17.167-28-17.167-43.333 0-11 3.8317-20.832 11.334-29.666 7.4994-8.6674 17.499-17 30.165-24.499 12.666-7.6668 25.333-14.166 37.668-19.5 12.332-5.3343 23.834-10.334 34.666-14.835zm14.166-179.17-96.164 33.669c-25.835-9.1694-46.335-23-61.836-41.834-15.497-18.834-23.164-41.336-23.164-67.669 0-26.665 7.4994-48.166 22.666-64.5 15.166-16.331 34.666-28.164 58.667-35.332 23.834-7.1682 48.832-10.665 74.834-10.665 36.5 0 69.998 7.1647 100.33 21.665 30.5 14.5 45.666 37.668 45.666 69.834 0 24.001-11.502 42.831-34.335 56.666-23 13.834-51.833 26.501-86.667 38.166z"/></glyph><glyph horiz-adv-x="660" unicode="2"><path d="m627.67 216.5-60.999-216.5h-508.5l-17.167 111.67 10.832 7.3321c49.334 32.166 91 60.166 124.67 83.832 33.669 23.834 67.502 51.502 101.5 83.501 34.167 31.835 62 66.334 84 103.83 22 37.333 33 76.333 33 117 0 32.501-9.9992 57.499-30.001 75.332-19.998 17.669-46.332 26.501-78.833 26.501-10.334 0-23.834-2.4998-40.499-7.3321-16.669-4.8323-30.5-11.666-41.667-20.5-11.334-8.6674-16.833-19.165-16.833-31.166 0-8.5 3.999-18.335 12.164-29.666 9.1694-14.668 13.667-29.335 13.667-44.003 0-14.166-3.999-27.167-12-39-7.998-11.666-18.165-20.664-30.664-27.167-12.67-6.4988-26.002-9.8319-40.335-9.8319-20.5 0-40.666 7.6668-60.166 23-18.499 16.833-27.832 41.332-27.832 73.167 0 59.664 29.332 110 87.831 151.17 48.166 33.498 110.17 50.331 186 50.331 34.167 0 67.502-3.999 100.33-11.997 32.668-8.0014 62.502-20.333 89.501-37.002 26.999-16.833 48.5-38.334 64.5-64.667 15.832-26.501 23.834-57.834 23.834-94.333 0-41.667-11.334-78.665-34.167-111.33-22.666-32.497-53.835-64.667-93.166-96.666-32.501-26.999-67.167-51.666-103.83-73.833-36.834-22.334-76.999-45-120.5-68.168h112.66 43.835c26.999 0 48.832 2.0012 65.166 5.8329 16.498 4.0024 30.998 12.666 43.665 26.333 12.67 13.667 25.667 35.834 39.003 66.501l80.998-22.167z"/></glyph><glyph horiz-adv-x="700" unicode="T"><path d="m261 180v385.17c0 10.334-0.83327 17-2.6671 19.667-1.8339 2.8311-7.1682 4.1663-16.334 4.1663-33.498 0-67.833-16.167-103-48.5-11.666-10.334-22.331-22.334-31.999-35.667-9.5006-13.5-22.334-33.502-38.166-60.002l-72.665 29.335 79.997 206.83h546.67l80.168-206.83-73.334-29.335c-12.335 21.002-23.834 39.502-34.833 55.334-10.832 15.836-22.502 29.335-34.833 40.335-35.168 32.334-69.499 48.5-103 48.5-8.9986 0-14.5-1.3353-16.334-4.1663-1.8339-2.6671-2.6671-9.3333-2.6671-19.667v-385.17c0-38.166 3.6677-62.498 11.167-73.167 6.5022-8.8313 16.334-14.999 29.335-18.499 13.001-3.6677 26.832-5.8329 41.5-6.4988h12.168v-81.834h-365.33v81.834h12.164c36.169 1.6665 59.667 9.9992 70.835 24.998 7.4994 10.669 11.167 35.001 11.167 73.167z"/></glyph><glyph horiz-adv-x="339" unicode=":"><path d="m165 172c18.001 0 34-3.8351 47.998-11.502 14.002-7.6668 25.002-18.499 33-32.501 8.0014-13.998 12-29.666 12-46.998 0-23.502-8.9986-44.167-26.832-62.167-18.001-17.833-38.668-26.835-62.167-26.835-17 0-32.501 3.8351-46.499 11.502-14.002 7.6668-25.333 18.499-33.833 32.501-8.5 13.998-12.666 29.332-12.666 45.997 0 24.168 8.6639 45.167 25.999 63.168 17.167 17.833 38.334 26.835 63 26.835zm0 343c18.001 0 34-3.8351 47.998-11.502 14.002-7.6668 25.002-18.332 33-32.166 8.0014-13.831 12-29.666 12-47.5 0-23.499-8.9986-44.167-26.832-62-18.001-17.833-38.668-26.832-62.167-26.832-15.999 0-31.333 3.8317-45.833 11.666-14.5 7.8341-25.999 18.667-34.499 32.668-8.5 13.998-12.666 29.164-12.666 45.498 0 24.332 8.6639 45.498 25.999 63.332 17.167 17.833 38.334 26.835 63 26.835z"/></glyph><glyph horiz-adv-x="660" unicode="7"><path d="m618.33 681 13.667-105c-36.165-28.334-76.831-78.334-122.17-150.33-44.832-70.998-80-140.83-105.5-209.83-25.333-69.001-37.999-141-37.999-215.83h-203.33c5.5016 85.666 44.167 185.17 115.83 298.83 58.834 91 130.67 176.83 215.33 257.17h-236.33c-28.669 0-49.501-0.66935-62.502-2.0012-13.165-1.3319-24.332-4.6684-33.498-10.167-9.3333-5.5016-17.669-14.166-25.002-25.835-7.3321-11.833-17-31.166-29-58.165l-71.832 11.167 32.665 210h549.67z"/></glyph><glyph horiz-adv-x="660" unicode="4"><path d="m504 681v-413h144.83l-41.998-98.001h-102.83v-18.001c0-14.668 1.0006-26.501 3.1657-35.168 2.1686-8.8313 7.6668-15.999 16.833-21.498 11.167-6.8335 29.168-11 54.166-12.335l10.836-1.0006v-81.998h-333.83v81.998h9.166c23.168 1.3353 40 4.6684 50.833 9.8353 11.666 5.4982 19.165 12.666 22.167 21.501 3.1657 8.8313 4.6649 21.665 4.6649 38.665v18.001h-286.83l-36.165 72.166 327.33 438.83h157.67zm-162-414v257.83l-183.83-257.83h183.83z"/></glyph><glyph horiz-adv-x="339" unicode=" "/><glyph horiz-adv-x="660" unicode="9"><path d="m459.67 286c-21.668-19.165-49.166-33.498-82.166-42.831-33-9.5006-66.668-14.169-100.84-14.169-45.331 0-86.499 9.1694-123.5 27.334-37.169 18.168-66.501 44.501-88.002 79-21.498 34.502-32.166 74.666-32.166 120.67 0 51 14.333 94.999 43.166 131.67 28.833 36.834 66.166 64.336 112.17 82.835 45.833 18.332 93.668 27.498 143.5 27.498 29.67 0 59.002-3.497 88.333-10.665 29.335-7.1682 56.669-18.499 82.002-34 25.5-15.501 47.165-34.499 65.5-57.332 16.334-19.834 29.666-43.668 40-71.5 10.498-27.836 17.833-56.669 22-86.335 4.1663-29.834 6.3315-58.5 6.3315-86.165 0-119.5-28.498-209.34-85.499-270-21.166-22.331-45.167-40.998-72.166-55.832-26.999-14.832-55.832-25.667-86.168-32.665-30.5-7.0008-61.665-10.501-93.5-10.501-31.664 0-65.497 4.501-101.83 13.667-36.332 9.166-67.331 23.834-93.333 44.334-25.831 20.5-38.665 46.666-38.665 78.167 0 21.498 7.8307 39.666 23.332 54.5 15.668 14.664 34.335 22.167 55.668 22.167 25.5 0 44.665-7.1682 57.499-21.668 12.834-14.333 22.334-35.001 28.498-61.833 2.6671-11.666 6.6696-19.169 12.335-22.833 14.333-9.668 34.833-14.5 61.833-14.5 52.168 0 91.168 21.166 117 63.499 25.835 42.333 38.668 91.499 38.668 147.5zm-131.67 317c-26.999 0-49.668-6.1641-68.168-18.499-18.332-12.499-31.832-29.332-40.666-50.665-8.8347-21.334-13.165-45-13.165-71.002 0-37.832 9.9992-69.499 29.998-95.167 20.002-25.831 48.5-38.665 85.666-38.665 27.003 0 50.167 5.8329 69.503 17.331 19.332 11.502 33.833 27.836 43.497 48.835 9.5006 20.999 14.336 44.832 14.336 71.5 0 26.501-4.501 49.832-13.503 70.333-8.8313 20.5-22.498 36.667-40.666 48.333-18.165 11.833-40.499 17.666-66.832 17.666z"/></glyph><glyph horiz-adv-x="660" unicode="6"><path d="m204.33 392c46.168 37.333 108.83 56 188 56 43.002 0 83.166-9.1694 120.5-27.501 37.5-18.499 67.003-44.501 88.668-78.334 21.668-33.833 32.501-72.832 32.501-117.17 0-52.998-13.5-97.834-40.502-134.33-27.167-36.667-62.997-63.666-107.5-81.332-44.665-17.499-93.002-26.333-145.17-26.333-103.83 0-181 30.001-231.33 89.832-50.334 59.835-75.5 142.5-75.5 247.84 0 73.331 11.666 138.33 35.001 195 23.168 56.833 59.333 101.33 108.16 133.84 48.835 32.33 110.34 48.497 184.67 48.497 27.334 0 56.334-3.3331 86.667-9.9992 30.5-6.6661 57-16.334 79.502-29 49.498-27.33 74.164-61.167 74.164-101.17 0-22.498-8.1653-40.666-24.332-54.832-16.334-14.166-35.499-21.334-57.666-21.334-21.501 0-39.833 6.6661-54.835 20.002-14.999 13.165-23.499 30.165-25.333 51-2.0012 17.833-4.6649 29.332-7.8341 34.499-10.832 15.166-31.166 22.833-60.999 22.833-36.834 0-67.498-10.501-92.001-31.668-24.499-20.999-42.831-48.333-54.664-81.667-11.833-33.498-18.667-68.331-20.169-104.66zm129.67-314c28.334 0 51.499 6.0002 69.499 17.833 18.168 11.833 31.333 28.167 39.833 48.835 8.5 20.664 12.666 44.665 12.666 71.999 0 25.667-4.1663 48.5-12.666 68.335-8.5 19.831-21.334 35.667-38.498 47.5-17.335 11.666-38.501 17.499-64.001 17.499-26.999 0-49.668-6.0002-68-17.833-18.335-11.833-32.334-28-41.667-48.333-9.5006-20.333-14.166-43.999-14.166-71.002 0-40.164 9.6645-72.498 28.997-97.499 19.336-24.834 48.668-37.333 88.002-37.333z"/></glyph></font><font id="b" font-weight="400,700" horiz-adv-x="722" horiz-origin-x="0" horiz-origin-y="0" vert-adv-y="90" vert-origin-x="45" vert-origin-y="90"><font-face font-family="Arial"/><missing-glyph><path d="m0 0"/></missing-glyph><glyph horiz-adv-x="722" unicode="U"><path d="m72.995 716h145.01v-387.99c0-61.672 1.8335-101.5 5.3272-119.68 6.1696-29.324 20.664-52.999 43.671-70.666 23.167-17.828 54.659-26.661 94.663-26.661 40.499 0 71.161 8.3253 91.838 25.162 20.664 16.836 32.991 37.34 37.166 61.833 4.1626 24.505 6.3307 65.004 6.3307 121.67v396.33h145v-376.5c0-86.003-3.8281-146.83-11.67-182.34-7.8297-35.494-22.164-65.5-43.163-89.992-20.838-24.505-48.837-43.844-83.835-58.339-35.172-14.495-80.837-21.829-137.33-21.829-68.163 0-119.84 7.8297-155.01 23.663-35.159 15.833-62.997 36.336-83.488 61.672-20.504 25.323-33.834 51.661-40.338 79.499-9.5022 40.995-14.173 101.66-14.173 181.83v382.33z"/></glyph><glyph horiz-adv-x="722" unicode="R"><path d="m72.995 0v716h304.5c76.501 0 132.16-6.5041 166.83-19.326 34.837-12.835 62.502-35.667 83.34-68.51 20.838-32.991 31.331-70.492 31.331-112.82 0-53.842-15.66-98.169-47.164-133.17-31.505-34.998-78.496-57.001-141.17-66.169 31.17-18.162 56.84-38.17 77.009-59.999 20.33-21.842 47.66-60.668 81.989-116.33l87.341-139.67h-172.84l-103.67 156.33c-37.166 55.502-62.663 90.5-76.501 105-13.665 14.334-28.16 24.332-43.497 29.671-15.498 5.3272-39.83 8.0032-73.168 8.0032h-29.324v-299h-145.01zm145.01 413.01h106.99c69.34 0 112.5 2.9981 129.84 8.8332 17.171 5.8227 30.836 15.994 40.499 30.328 9.8367 14.334 14.668 32.335 14.668 53.829 0 24.171-6.4917 43.51-19.326 58.5-12.835 14.842-31.009 24.171-54.337 27.999-11.831 1.6725-47.003 2.5025-105.5 2.5025h-112.82v-181.99z"/></glyph><glyph horiz-adv-x="777" unicode="O"><path d="m43.002 353.66c0 73.007 11.001 134.33 32.83 184 16.167 36.51 38.504 69.34 66.664 98.342 28.172 28.99 59.008 50.497 92.507 64.657 44.662 18.843 96.162 28.333 154.5 28.333 105.66 0 190-32.83 253.5-98.33 63.332-65.661 94.997-156.83 94.997-273.67 0-115.84-31.505-206.5-94.341-271.84-62.824-65.5-146.99-98.156-252.16-98.156-106.49 0-191.33 32.496-254.17 97.661-62.836 65.004-94.328 154.67-94.328 269zm149 4.8316c0-81.159 18.831-142.66 56.332-184.67 37.501-41.825 85.161-62.824 142.83-62.824 57.831 0 105.17 20.826 142.34 62.328 37.005 41.664 55.502 104 55.502 187.17 0 82.163-18.001 143.5-54.164 183.82-36.002 40.511-83.835 60.668-143.67 60.668-59.664 0-107.83-20.491-144.33-61.325-36.497-41.007-54.833-102.67-54.833-185.18z"/></glyph><glyph horiz-adv-x="722" unicode="À"><path d="m718.01 0h-156.17l-61.833 163h-287.17l-59.491-163h-153.34l278 716h153.16l286.84-716zm-265.01 284-99.494 265-96.67-265h196.16zm-22.002 497h-85.991l-135 146h153l67.99-146z"/></glyph><glyph horiz-adv-x="277" unicode="I"><path d="m68.002 0v716h145v-716h-145z"/></glyph><glyph horiz-adv-x="610" unicode="T"><path d="m234 0v595h-212v121h568v-121h-211.01v-595h-145z"/></glyph><glyph horiz-adv-x="722" unicode="Ẫ"><path d="m718.01 0h-156.17l-61.833 163h-287.17l-59.491-163h-153.34l278 716h153.16l286.84-716zm-265.01 284-99.494 265-96.67-265h196.16zm-98.491 492.5-53.507-36.51h-96.001l106 64.001h87.007l106-64.001h-96.001l-53.495 36.51zm-163.51 43.497c-0.3345 21.829 8.6722 40.995 27.169 57.335 18.335 16.49 42.333 24.666 72.004 24.666 20.157 0 47.66-7.3342 82.497-22.002 25.001-8.0032 43.336-12.005 54.659-12.005 19.834 0 31.839 11.67 35.667 34.998h55.006c-2.168-54.659-33.995-82.002-95.666-82.002-20.504 0-47.499 7.0121-81.172 21.172-28.668 9.1677-47.994 13.838-57.992 13.838-20.838 0-33.338-12.005-37.166-36.002h-55.006z"/></glyph><glyph horiz-adv-x="722" unicode="N"><path d="m72.995 0v716h140.34l294.67-479.83v479.83h134v-716h-144.84l-290.16 470.66v-470.66h-134.01z"/></glyph><glyph horiz-adv-x="722" unicode="Â"><path d="m718.01 0h-156.17l-61.833 163h-287.17l-59.491-163h-153.34l278 716h153.16l286.84-716zm-265.01 284-99.494 265-96.67-265h196.16zm-256.99 497 102.49 144h126.34l101.17-144h-110l-56.505 72.995-52.504-72.995h-110.99z"/></glyph><glyph horiz-adv-x="722" unicode="H"><path d="m72.995 0v716h145.01v-281.99h281.99v281.99h145v-716h-145v313h-281.99v-313h-145.01z"/></glyph><glyph horiz-adv-x="277" unicode=" "/><glyph horiz-adv-x="852" unicode="Ờ"><path d="m192 358.5c0-78.991 18.831-140.49 56.332-184.83 35.494-41.837 83.166-62.663 142.83-62.663 59.838 0 107.34 20.826 142.51 62.663 36.832 43.671 55.328 105.84 55.328 186.84 0 80.168-18.001 141.49-53.829 183.82-34.676 40.511-82.51 60.668-144.01 60.668-61.337 0-109.49-20.491-144.33-61.659-36.497-42.667-54.833-104.34-54.833-184.84zm524 357.5h137v-98.169c0-40.326-3.4936-71.991-10.493-94.824-6.9997-22.672-19.673-43.002-38.17-60.668-18.67-17.84-41.837-31.839-69.836-42.333 2.3415-20.169 3.506-41.342 3.506-63.17 0-114.83-31.331-205.17-93.833-271-62.502-65.834-146.83-98.826-252.67-98.826-106.83 0-191.67 32.657-254.33 98.156-62.836 65.339-94.167 154.84-94.167 268.5 0 120 33.165 214.16 99.668 282.34 59.999 61.994 142.34 92.99 246.84 92.99 105.66 0 190.17-32.83 253.66-98.491 38.17-39.842 64.831-89.001 80.168-147.5 37.835 17.332 57.335 49.332 58.661 96.001h-65.995v137zm-235.99 65.004h-86.003l-135 146h153l68.002-146z"/></glyph><glyph horiz-adv-x="832" unicode="M"><path d="m71 0v716h217.16l128.34-488.33 126.84 488.33h217.66v-716h-134l-0.49555 563.67-141.17-563.67h-139.34l-140.49 563.67-0.50794-563.67h-134z"/></glyph><glyph horiz-adv-x="722" unicode="Á"><path d="m718.01 0h-156.17l-61.833 163h-287.17l-59.491-163h-153.34l278 716h153.16l286.84-716zm-265.01 284-99.494 265-96.67-265h196.16zm-151 497 68.002 146h153l-135-146h-86.003z"/></glyph><glyph horiz-adv-x="829" unicode="Ư"><path d="m693 716h137v-98.169c0-40.326-3.506-71.83-10.506-94.663-6.9997-22.833-19.834-43.163-38.331-61.002-29.993-28.668-75.993-47.66-138.16-57.162v-65.165c0-84.504-3.8405-145.33-11.67-182.5-7.4952-34.998-21.829-65.004-43.002-90.005-46.161-53.495-120-80.329-221.83-80.329-113.16 0-192.67 28.494-238.83 85.495-20.504 25.162-33.995 51.5-40.499 79.338-9.5022 40.66-14.173 101.33-14.173 181.83v382.33h145.01v-387.99c0-62.167 1.8335-102.17 5.3272-119.68 13.33-64.831 59.504-97.326 138.83-97.326 76.34 0 119.5 29.002 129.5 86.994 4.175 24.505 6.3431 65.004 6.3431 121.67v396.33h145v-255c47.164 8.8332 79.994 25.831 98.491 51.166 11.001 15.003 16.836 37.34 17.505 66.838h-65.995v137z"/></glyph><glyph horiz-adv-x="777" unicode="G"><path d="m406.01 263v121h311v-285.67c-30.167-29.498-73.998-55.328-131.51-77.826-57.323-22.337-115.5-33.499-174.5-33.499-74.828 0-139.99 15.66-195.67 47.164-55.502 31.492-97.326 76.662-125.32 135.16-27.999 58.5-42.01 122.34-42.01 191.17 0 74.667 15.672 141 46.842 199.16 31.331 58.004 76.996 102.67 137.17 133.66 46 23.836 103 35.667 171.32 35.667 88.84 0 158.34-18.658 208.34-55.997 49.828-37.501 81.989-89.001 96.323-155l-144-26.995c-9.9978 35.159-29.002 62.997-56.84 83.488-27.664 20.342-62.328 30.501-103.99 30.501-62.997 0-113.17-19.996-150.34-60.16-37.166-40.164-55.836-99.668-55.836-178.5 0-85.173 18.843-149 56.505-191.51 37.835-42.494 87.168-63.827 148.33-63.827 30.167 0 60.507 5.9962 90.835 17.828 30.501 11.831 56.505 26.339 78.334 43.336v90.835h-164.99z"/></glyph></font>
</defs>
</svg>
