<?xml version="1.0" encoding="UTF-8"?>
<svg version="1.1" viewBox="0 0 135.69 217.36" xmlns="http://www.w3.org/2000/svg" xmlns:xlink="http://www.w3.org/1999/xlink">
<defs>
<linearGradient id="a">
<stop stop-color="#766718" stop-opacity=".52041" offset="0"/>
<stop stop-color="#bea521" stop-opacity=".35686" offset="1"/>
</linearGradient>
<linearGradient id="b">
<stop stop-color="#787800" stop-opacity=".73725" offset="0"/>
<stop stop-color="#c89221" stop-opacity=".4902" offset="1"/>
</linearGradient>
<linearGradient id="c">
<stop stop-color="#0000fa" stop-opacity=".58039" offset="0"/>
<stop stop-color="#00fffa" stop-opacity=".26531" offset="1"/>
</linearGradient>
<font id="ad" horiz-adv-x="2048" horiz-origin-x="0" horiz-origin-y="0" vert-adv-y="90" vert-origin-x="45" vert-origin-y="90">
<font-face font-family="DecoType Thuluth embedded" ascent="2725" descent="1429" units-per-em="2048"/>
<missing-glyph horiz-adv-x="2048">
<path d="m0 2048h2047v-2047h-2047v2047z" fill="none" stroke="#000" stroke-width="33"/>
</missing-glyph>
<glyph horiz-adv-x="1005" unicode=" "/>
<glyph horiz-adv-x="212" unicode="ا">
<path d="m391 324c3-33 4-66 4-97 0-111-13-190-39-239-10-18-17-27-22-28-7 1-8 22-3 64 7 54 7 110 1 169-24 191-57 477-100 860-5 70-14 171-27 303-2 7-11 27-27 59-4 7 7 50 32 127 1 5 3 7 6 7 7 0 16-14 28-43 21-44 41-88 61-132 32-68 48-110 48-127 0-5-2-8-6-8-3 0-7 2-13 6-17 13-34 29-53 48-1-19 12-141 41-368 35-270 58-470 69-601z"/>
</glyph>
<glyph horiz-adv-x="451" unicode="ة">
<path d="m478 1156c0-11-4-29-13-56-11-31-22-53-34-68-27 15-53 29-80 44-36 21-54 36-54 47 0 4 7 23 20 56 15 36 25 54 31 54 87-38 130-64 130-77zm-200-59c0-16-4-36-12-59-11-28-22-42-34-42-6 0-30 13-73 38-47 27-70 46-70 57 0 9 16 50 49 123 19-19 51-42 96-67 29-17 44-33 44-50zm254-415c-13-26-62-96-145-211 48-49 76-85 83-108 9-29 14-59 14-90 0-49-12-97-35-143-11-21-41-48-90-83-53-37-91-52-116-50-47 6-70 41-70 106 0 48 14 113 41 194 12 37 34 79 67 128-71 61-124 125-159 191-13 0-19 4-18 11 2 49 3 88 3 116 0 6 2 9 6 9-2 0 13-10 45-31l78-45c32-18 48-30 48-36 0-4-5-6-14-7-10-1-28-3-54-6 6-10 48-48 125-115 48 63 103 141 166 232 17 33 29 49 37 49 5 0 8-8 8-23 0-33-7-62-20-88zm-91-439c2 3 3 6 3 9 0 21-40 66-120 135-23-29-46-67-69-114s-35-83-35-106c0-20 12-30 36-30 26 0 61 14 104 41 36 23 63 45 81 65z"/>
</glyph>
<glyph horiz-adv-x="821" unicode="د">
<path d="m950 530c0-64-15-117-46-160-16-22-49-49-100-82-39-25-77-49-115-74-119-87-198-143-236-167-85-52-154-78-207-79-39 1-71 22-94 62-22 39-33 87-33 146 0 27 7 73 21 136 17 81 38 139 63 176 4 1 6-3 6-10 0-5-7-39-22-100s-22-112-22-153c0-33 8-61 25-84 17-24 37-36 62-36 63 0 175 54 336 161 37 23 119 78 245 163 53 37 76 61 71 74-15 37-41 66-79 87-69 37-138 73-207 110-49 28-103 74-161 139-48 53-78 80-89 80-5 0-9-2-12-5 0 1 2 13 6 38s5 53 4 85c-1 27 1 41 4 41 2 0 13-9 33-28 11-11 44-28 99-53 49-21 73-35 73-42 0-4-7-7-21-8s-36-4-66-9c47-45 117-91 212-137 101-49 158-79 170-88 53-42 80-103 80-183z"/>
</glyph>
<glyph horiz-adv-x="1747" unicode="س">
<path d="m1739 410c0-143-50-215-150-215-32 0-59 10-81 31-3 2-19 21-48 58-9-19-25-47-46-83-37-57-88-85-151-85-25 0-48 5-69 16 5-43 8-70 8-81 0-95-18-166-53-212-73-93-177-180-312-261-156-91-300-137-432-138-129 1-233 45-310 133-70 82-101 175-95 281 7 106 22 191 45 258 7 21 25 60 54 117 8 16 16 25 25 28 8 3 12-1 12-13 0-9-3-21-9-36-46-111-69-212-69-306s38-173 114-237c67-54 138-82 215-85 94-1 205 26 333 81 161 71 308 174 441 309-3 49-19 110-50 184-17 40-33 80-50 120-1 9 0 19 3 32 5 20 9 46 11 78 0 5 3 8 9 9s11 0 14-3c12-21 31-55 58-101 40-17 77-26 111-26 80 0 142 51 186 154 27 63 49 97 65 102 2 1 4 1 5 1 4 0 6-4 6-11 0 11-8-27-23-112 21-25 34-40 41-45 14-11 35-16 63-16 48 0 72 9 72 27 0 7-4 18-12 33s-12 27-12 35c3 21 16 58 37 109 2 3 4 5 7 5 8 0 16-15 25-46 8-31 12-60 12-89z"/>
</glyph>
<glyph horiz-adv-x="1086" unicode="ك">
<path d="m1109 431c1-125-21-215-66-272-78-99-187-190-327-278-151-92-278-139-381-140-106 1-190 43-251 127-54 76-81 165-81 271 0 103 17 193 52 270 15 33 28 50 38 50 5 0 8-5 8-16 0-12-4-27-12-46-27-64-40-138-40-222 0-65 20-125 61-179 59-76 149-115 271-116 64 1 165 40 302 118 148 85 270 179 366 282 2 1 3 7 3 18 0 46-19 180-56 403-21 121-42 243-63 365-9 59-20 149-34 272-2 8-11 29-27 62-9 17-2 64 23 139 2 5 4 7 7 7 8 0 17-14 28-42 71-135 107-217 107-246 0-6-2-9-5-9s-8 2-14 7c-10 12-26 31-47 56 1-13 22-139 64-379 44-247 69-415 74-502zm-366 93c1-8 2-16 2-24 0-78-39-142-118-193-97-31-167-47-210-47-6 0-9 1-10 3 0 3 8 8 23 16 125 60 202 108 233 145-67 0-110 4-130 11-30 11-45 36-45 76 0 15 18 62 55 141 42 91 78 136 108 136 9 0 18-5 26-15 1-3 2-8 2-16 0-21-3-46-9-73-7-31-14-47-22-47-2 1-4 2-5 3-7 10-14 15-21 15-11 0-33-24-67-72 12-19 31-28 56-28 11 0 26 2 46 6 20 3 34 5 43 5 26 0 40-14 43-42z"/>
</glyph>
<glyph horiz-adv-x="1086" unicode="ل">
<path d="m1106 412c1-124-21-215-66-272-78-99-187-190-327-278-151-92-278-139-381-140-107 1-191 43-252 127-53 76-80 165-80 271 0 103 17 193 52 270 15 33 28 50 38 50 5 0 8-5 8-15 0-13-4-28-12-47-27-64-40-138-40-222 0-65 20-125 61-178 59-77 149-116 271-117 63 1 164 41 302 119 148 85 270 178 366 281 2 2 3 8 3 18 0 46-19 180-57 403-21 122-41 244-62 365-9 59-20 150-34 272-2 9-11 29-27 62-9 17-2 64 23 139 1 5 4 7 7 7 8 0 17-14 28-42 71-135 107-217 107-246 0-5-2-8-6-8-3 0-7 2-13 6-10 12-26 31-47 56 0-13 21-139 64-379 44-247 69-415 74-502z"/>
</glyph>
<glyph horiz-adv-x="1271" unicode="ن">
<path d="m670 1166c-4-22-8-44-11-66-7-34-16-51-26-51-12 0-35 9-68 26-31 16-47 26-49 31-3 4-5 12-6 23 7 23 16 55 27 98 2 13 6 19 11 18 0 0 6-4 17-11 20-8 50-22 90-42 5-1 9-3 13-5s5-9 2-21zm607-759c2-17 3-33 3-48 0-55-15-112-46-171-81-110-202-211-363-307-182-106-350-159-504-160-128 1-224 51-288 150-53 83-79 188-79 319 0 63 7 125 20 185 4 18 9 32 14 43 8 17 14 19 19 8s4-33-3-64c-10-45-15-90-15-134 0-238 129-357 386-358 117 1 270 55 461 163 179 102 294 192 343 271 1 2 2 4 2 7 0 11-13 42-40 91-31 59-51 102-60 129-13 34-30 80-49 139-9 7-13 11-13 12 7 15 17 58 30 130 1 5 4 7 7 7 1 0 13-13 36-39 61-68 91-104 91-108 0-3-2-5-7-5-2 0-7 1-15 2-7-1-20 1-37 4 1-3 18-40 52-111 32-68 50-120 55-155z"/>
</glyph>
<glyph horiz-adv-x="451" unicode="ه">
<path d="m501 683c-13-25-61-96-146-212 47-49 75-85 82-108 9-29 14-59 14-90 0-49-12-97-35-143-11-21-41-48-90-83-53-37-91-52-115-50-47 6-70 41-70 106 0 47 13 112 40 194 11 32 33 75 67 128-69 59-122 122-159 191-13 0-19 4-18 11 1 21 2 59 4 116-1 6 1 9 5 9-2 0 13-10 45-31 27-15 53-30 79-45 31-19 47-31 47-36 0-4-5-6-14-7-10-1-28-3-53-6 7-11 48-50 124-115 49 63 104 141 167 232 17 33 29 49 37 49 5 0 8-8 8-24 0-33-6-61-19-86zm-92-440c2 2 3 5 3 9 0 20-40 65-120 135-24-29-47-67-70-114s-35-83-35-106c0-20 12-30 36-30 26 0 61 14 104 41 37 23 64 45 82 65z"/>
</glyph>
<glyph horiz-adv-x="1165" unicode="ي">
<path d="m1140 134c-9-31-57-79-142-144-95-72-197-132-306-182-134-59-256-89-365-89-103 2-185 41-247 119-57 74-83 162-80 264 5 130 34 246 85 349 27 54 46 81 57 81 3-1 4-3 4-8 0-15-10-44-30-86-47-98-70-195-67-290 2-79 30-146 85-200s121-82 199-83c115 1 240 28 374 82 103 42 199 93 288 156 79 55 114 87 107 97-12 17-56 33-132 47-97 19-162 35-194 48-67 27-100 66-100 117 0 133 57 267 170 400 82 97 154 145 217 145 51 0 77-37 77-112 0-57-16-86-48-86-3 0-7 10-13 31-6 20-23 30-50 30-53 0-115-45-188-134-75-93-113-156-113-190 0-2 0-4 1-5 27-38 82-66 165-84 123-27 194-44 215-53 33-14 50-48 50-103 0-35-6-74-19-117zm-348-565c0-9-4-27-13-54-11-30-22-53-34-67-27 16-53 30-79 44-37 22-55 38-55 47 0 5 7 24 21 58 14 35 24 52 29 51 87-36 131-63 131-79zm-200-56c0-16-4-36-13-60-10-27-21-41-33-42-6 1-30 14-73 38-47 28-70 48-70 58 0 9 16 50 48 123 20-18 52-41 96-68 30-16 45-32 45-49z"/>
</glyph>
</font>
<font id="ae" horiz-adv-x="2048" horiz-origin-x="0" horiz-origin-y="0" vert-adv-y="90" vert-origin-x="45" vert-origin-y="90">
<font-face font-family="Mudir MT embedded" ascent="2540" descent="1217" units-per-em="2048"/>
<missing-glyph horiz-adv-x="2048">
<path d="m0 2048h2047v-2047h-2047v2047z" fill="none" stroke="#000" stroke-width="33"/>
</missing-glyph>
<glyph horiz-adv-x="1005" unicode=" "/>
<glyph horiz-adv-x="266" unicode="ا">
<path d="m168 1145c170 135 265 203 285 203 7 0 11-6 11-18l-23-300-62-802c-7-95-14-154-19-178-6-24-16-36-31-36-11 0-21 9-28 27-7 17-25 149-53 394l-80 710z"/>
</glyph>
<glyph horiz-adv-x="662" unicode="ة">
<path d="m311 1273 125-130 127 128 137-138-135-136-128 129-124-129-136 138 134 138zm25-501c41 0 131-42 269-125 137-84 206-183 206-297 0-101-35-199-104-292-69-92-164-139-283-140-211 1-316 97-316 290 0 99 29 217 88 356s105 208 140 208zm-58-230c-41-57-61-118-61-181 0-55 27-97 80-124s121-41 202-41c57 0 110 11 157 33s71 44 71 66c0 21-44 56-131 106s-193 97-318 141z"/>
</glyph>
<glyph horiz-adv-x="795" unicode="د">
<path d="m445 862c35 0 100-42 195-127s164-167 205-244 62-160 62-248c0-159-34-269-103-333-69-63-190-95-363-96-228 1-342 79-342 233 0 52 6 107 19 164 12 57 26 86 43 86 20 0 32-19 35-56 3-28 9-50 20-66 11-17 40-30 87-41s104-16 173-16c97 0 179 10 246 30s100 42 100 66c0 36-59 101-178 194s-200 139-243 139c-9 0-19-3-31-10-9-4-15-6-19-6-18 0-27 9-27 26 0 13 18 68 54 163 35 95 58 142 67 142z"/>
</glyph>
<glyph horiz-adv-x="1879" unicode="س">
<path d="m1258 46c5-18 8-51 8-101 0-89-18-177-54-263s-102-159-198-220c-96-60-228-90-395-91-379 1-568 148-568 440 0 100 16 192 48 279 31 87 58 130 80 130 14 0 21-10 21-29 0-5-4-22-11-51-21-81-31-140-31-179 0-190 156-285 467-286 169 1 306 24 412 69 105 46 158 106 158 180 0 60-65 161-195 306-35 41-53 63-53 68 0 1 5 10 16 26 24 39 50 83 77 134 23 43 37 64 43 64 5 0 24-18 57-54 99-110 175-165 230-165 23 0 44 8 62 25 17 17 33 53 48 110 11 43 23 64 34 64 6 0 12-12 19-37 18-66 45-109 81-130 35-21 76-32 121-32 40 0 72 8 97 24 24 15 36 34 36 56 0 31-23 80-68 145-15 22-22 35-22 40 0 6 15 31 46 76 30 44 50 66 59 66 13 0 30-29 51-88s32-132 32-220c0-118-23-213-70-285s-107-108-180-108c-77 0-134 45-173 135-35-91-90-137-167-137-37 0-76 13-118 39z"/>
</glyph>
<glyph horiz-adv-x="1060" unicode="ك">
<path d="m987 304c-25 219-68 438-130 656-13 48-20 77-20 86 0 13 30 58 89 134s94 114 107 114c11 0 27-27 48-80 26-63 50-114 72-154 23-41 35-67 35-77 0-13-8-19-25-19-13 0-30 3-53 10 10-99 15-222 15-368 0-119-7-219-21-298s-35-143-62-192-55-80-83-93c-29-13-61-20-96-20h-426c-124 0-209 1-256 3s-76 6-87 12c-11 5-17 16-17 32 0 10 2 29 7 57 5 30 8 57 9 81 4 55 9 87 15 97s25 15 58 15c7 0 24-1 49-2 44-2 77-3 100-3h527c50 0 98 3 145 9zm-476 425c0 13-19 29-58 48-61 31-92 63-92 96 0 51 38 93 115 126 76 33 144 49 205 49 12 0 18-3 18-8s-4-16-13-33-15-27-19-32c-5-5-17-9-36-12-103-17-154-38-154-61 0-10 19-25 57-44 64-33 96-65 96-94 0-100-93-150-279-150-83 0-124 6-124 18 0 8 6 20 18 37 11 16 22 24 32 24 4 0 11 0 21-1 20-1 37-1 52-1 107 0 161 13 161 38z"/>
</glyph>
<glyph horiz-adv-x="1271" unicode="ل">
<path d="m1305 995-11-474c-7-297-17-504-30-623-13-118-41-212-84-282-43-68-111-125-204-171-94-44-208-67-343-68-197 1-336 41-418 121-83 80-124 177-124 290 0 70 13 156 38 259s50 155 76 155c12 0 18-10 18-31 0-1-1-4-2-10-13-67-20-129-20-186 0-102 42-178 125-230 83-51 198-77 343-78 121 1 219 18 295 50 75 34 130 70 163 109 33 40 50 74 50 101 0 8 0 19-1 33l-42 548c-8 111-27 258-57 440-9 52-13 81-13 87 0 29 32 80 95 154 14 16 31 36 50 61 27 33 44 49 52 49 7 0 14-5 19-15s16-35 31-76c24-62 46-115 65-159 15-35 23-56 23-61 0-13-5-19-14-19-13 0-39 9-80 26z"/>
</glyph>
<glyph horiz-adv-x="1139" unicode="ن">
<path d="m707 951 137-138-137-138-135 137 135 139zm396-198c18 0 54-52 107-157s79-236 79-391c0-404-211-606-633-607-178 1-318 38-420 110-102 73-153 184-153 334 0 89 15 179 46 272 31 92 59 138 86 138 14 0 21-8 21-25 0-8-5-31-15-70-19-77-29-130-29-160 0-196 152-293 455-294 168 1 304 24 407 70 103 45 154 103 154 174 0 74-72 185-215 333-17 17-25 30-25 37 0 6 11 28 33 66 21 35 41 72 61 112 20 39 34 58 41 58z"/>
</glyph>
<glyph horiz-adv-x="662" unicode="ه">
<path d="m336 772c41 0 131-42 269-125 137-84 206-183 206-297 0-101-35-199-104-292-69-92-164-139-283-140-211 1-316 97-316 290 0 99 29 217 88 356s105 208 140 208zm-58-230c-41-57-61-118-61-181 0-55 27-97 80-124s121-41 202-41c57 0 110 11 157 33s71 44 71 66c0 21-44 56-131 106s-193 97-318 141z"/>
</glyph>
<glyph horiz-adv-x="1510" unicode="ي">
<path d="m1342 956c101 0 175-34 222-103 46-69 69-128 69-176 0-9-2-13-6-13-3 0-11 3-24 8-86 37-192 55-317 55-114 0-198-30-253-91s-83-111-83-152c0-13 14-25 43-36s101-23 218-38c111-14 191-27 239-40 47-13 82-37 105-70 22-34 33-79 33-136 0-136-28-240-85-315-57-74-151-134-282-181-131-46-298-69-501-70-222 1-384 38-485 112s-152 187-152 337c0 94 18 199 55 314 36 115 68 173 95 173 17 0 26-10 26-29 0-10-5-33-14-69-22-81-33-146-33-196 0-125 51-217 152-276s274-89 519-90c417 1 626 60 626 176 0 17-15 32-45 44s-107 24-230 35c-183 17-295 39-336 68-41 28-61 67-61 118 0 75 42 201 126 377s210 264 379 264zm-657-1444 127-128 127 128 133-138-133-139-127 129-127-129-136 135 136 142z"/>
</glyph>
</font>
</defs>
</svg>
